Suicide Squad 2016 movie full online Stream

Suicide Squad 2016 movie full online Stream

Note: This is not the same resource at the Cinema Black bar to sample

Split, play, culture, size, improve the quality of the video was eventually merged into one does not forget to rate comment

general

Full name: Suicide Squad 2016

MPEG-4

Format profile: Base Media / Version 2

Codec ID: mp42

File size: 711 MiB

Duration: 1h 48mn

Overall bit rate mode: Variable

Overall bit rate: 921 Kbps

video

ID: 1

Format: MPEG

Format / Info: Advancedvideo codec

formatprofile: / * * /

Format settings, CABAC: Yes

Format settings, reframes: 4 frames

Codec ID: VC1

Codec ID / Info: Advanced Videopagkukudigo

Duration: 1h 48mn

Bit rate: 720 kbps

Width: 600 pixels

Height: 270 pixels

Display aspect ratio:

Frame rate mode: Constant

Frame rate: FPS

Minimum frame rate: FPS

Maximum frame rate: FPS

Color Space: the IUD

Colorimetri: 4: 2: 0

Bit depth: 8 bits

Scan Type: House

Bits / (Pixel * Frame):

Stream size: 556 MiB (78%)

Penulisanperpustakaan: k264 core 142 r2479 dd79a61

sound

ID:2

AAC format

Format / Info: Advanced Audio Codec

Format profile: LK

Codec ID: 40

Duration: 1h 48mn

Bit rate mode: Constant

Bit rate: 192 Kbps

Channel (s): 2 channels

Channel positions: Front: L R

sampling: kHz

Compression: Lossy

Stream size: 149 MiB (21%)

Title: stereo / stereo

English

Suicide Squad 2016 x264 DTS-BiGDADDIVAiN

P R E S E N T S,

:

T E C H N I C A L.I. © O.,

basic information

Format: Matroska

formatverzija: Version 4 / Version 2

File size: MiB

Duration: 1 53 min

pangkalahatangBitrate mode: Variable

Overall bitrate: 2069 kb / s

Date coded: 08/14/2016 19:10:20 UTC

A written application: mkvmerge (Over the Horizon “) 64bit

Library writes: libebml + libmatroska

video

ID: 1

Format: MPEG

Format / Info: Advanced Video Codec

Format profile: / * * /

Format settings, CABAC: Yes

Format settings, reframes: 3 frame

Codec: V_MPEG4 / ISO / AVC

Duration: 1 53 min

modeBit rate: variable

Bitrate: 1875 kb / s

Maximum flow rate Mb / s

Width: 704 pixels

height:288 pixels

Display aspect ratio: 1

Frame rate mode: Variable

FPS frame rate

Color Space: the IUD

Colorimetri: 4: 2: 0

Bit depth: 8 bits

Scan Type: House

Bits / (Pixel * Frame):

Stream size: MiB (91%)

Vriting librari: k264 core 148 r2692 64f4e24

Default: Yes

They do not

Different colors: Full

Preliminary Color:

Transferciri characteristics:

Matrix coefficients:

sound

ID: 2

Format: MPEG

formatversion 1

Format profile: Layer 3

Mode: Stereo

Expert Mode: Stereo MS

Codec ID: A_MPEG / L3

codec ID/ Hint: MP3

Duration: 1 53 min

Bit rate mode: Variable

Bit Rate: 192 kb / s

Channel (s): 2 channels

Sampling: kHz,

FPS frame rate (SPF 1152)

Compression: Lossy

Stream size: 156 MiB (9%)

O K E N D E R S O O T N E S,

:

..
Outlaws and Angels 2016 online dual audio stream ..
Jackie 2017 Watch Full english stream
http://danavan.xyz/suicide-squad-2016-english-stream-full-watch-movie/
. http://rkumarindia.com/blood-in-the-water-2016-movie-full-online-subtitles/
. http://saglikligidalar.net/2017/02/23/sleight-2016-movie-full-online/
…:

: Iippers

Added: CPG emissions and take the money needed without error stolicudrugi only one set of eyes. sizes, concise and shredded, plus filter blue eyes Ol ‘Vink: then the audio line that does not live and sprayedIt poo now we have a diamond created by: shit:

screen:

…..

Comments are closed.